注册 登录  
 加关注
   显示下一条  |  关闭
温馨提示!由于新浪微博认证机制调整,您的新浪微博帐号绑定已过期,请重新绑定!立即重新绑定新浪微博》  |  关闭

凤凰之雨中涅槃

人生如戏,全靠演技。

 
 
 

日志

 
 

[畅听音乐] Patricia Barber - Smash [flac][百度盘]  

2013-04-14 10:02:00|  分类: 畅听音乐 |  标签: |举报 |字号 订阅

  下载LOFTER 我的照片书  |
[畅听音乐] Patricia Barber - Smash [flac][百度盘] - missmin - 凤凰之雨中涅槃


Audio CD (January 22, 2013) 
Original Release Date: 2013 
Number of Discs: 1 
Label: Concord Jazz 
ASIN: B00A196ONW 


女爵士鋼琴手/歌手Patricia Barber進入爵士樂壇逾廿年,推出過十多張作品,除了1998年的《Modern Cool》稍見失準之外,其餘的作品皆屬四星級或以上的佳作,鮮見失手。今次這張《Smash》也不例外,是一張具創意、詩意和精緻音樂深度之唱片。


曲目

1 Code Cool 5:20
2 The Wind Song 3:39
3 Romanesque 2:30
4 Smash 4:30
5 Redshift 4:26
6 Spring Song 4:38
7 Devil's Food 5:07
8 Scream 5:44
9 The Swim 4:23
10 Bashful 6:09
11 The Storyteller 3:12
12 Missing 5:20



下载地址




CUE错误,请复制粘贴下面内容更改

REM DATE 2013
PERFORMER "Patricia Barber"
TITLE "Smash"
FILE "01 - Patricia Barber - Code Cool.flac" WAVE
  TRACK 01 AUDIO
    TITLE "Code Cool"
    INDEX 01 00:00:00
FILE "02 - Patricia Barber - The Wind Song.flac" WAVE
  TRACK 02 AUDIO
    TITLE "The Wind Song"
    INDEX 01 00:00:00
FILE "03 - Patricia Barber - Romanesque.flac" WAVE
  TRACK 03 AUDIO
    TITLE "Romanesque"
    INDEX 01 00:00:00
FILE "04 - Patricia Barber - Smash.flac" WAVE
  TRACK 04 AUDIO
    TITLE "Smash"
    INDEX 01 00:00:00
FILE "05 - Patricia Barber - Redshift.flac" WAVE
  TRACK 05 AUDIO
    TITLE "Redshift"
    INDEX 01 00:00:00
FILE "06 - Patricia Barber - Spring Song.flac" WAVE
  TRACK 06 AUDIO
    TITLE "Spring Song"
    INDEX 01 00:00:00
FILE "07 - Patricia Barber - Devil's Food.flac" WAVE
  TRACK 07 AUDIO
    TITLE "Devil's Food"
    INDEX 01 00:00:00
FILE "08 - Patricia Barber - Scream.flac" WAVE
  TRACK 08 AUDIO
    TITLE "Scream"
    INDEX 01 00:00:00
FILE "09 - Patricia Barber - The Swim.flac" WAVE
  TRACK 09 AUDIO
    TITLE "The Swim"
    INDEX 01 00:00:00
FILE "10 - Patricia Barber - Bashful.flac" WAVE
  TRACK 10 AUDIO
    TITLE "Bashful"
    INDEX 01 00:00:00
FILE "11 - Patricia Barber - The Storyteller.flac" WAVE
  TRACK 11 AUDIO
    TITLE "The Storyteller"
    INDEX 01 00:00:00
FILE "12 - Patricia Barber - Missing.flac" WAVE
  TRACK 12 AUDIO
    TITLE "Missing"
    INDEX 01 00:00:00



 
  评论这张
 
阅读(2578)| 评论(1)
推荐 转载

历史上的今天

在LOFTER的更多文章

评论

<#--最新日志,群博日志--> <#--推荐日志--> <#--引用记录--> <#--博主推荐--> <#--随机阅读--> <#--首页推荐--> <#--历史上的今天--> <#--被推荐日志--> <#--上一篇,下一篇--> <#-- 热度 --> <#-- 网易新闻广告 --> <#--右边模块结构--> <#--评论模块结构--> <#--引用模块结构--> <#--博主发起的投票-->
 
 
 
 
 
 
 
 
 
 
 
 
 
 

页脚

网易公司版权所有 ©1997-2017